<?xml version="1.0" standalone="no"?>
<!DOCTYPE svg PUBLIC "-//W3C//DTD SVG 1.1//EN" "http://www.w3.org/Graphics/SVG/1.1/DTD/svg11.dtd" >
<svg xmlns="http://www.w3.org/2000/svg">
<metadata>Generated by IcoMoon</metadata>
<defs>
<font id="rbu-www" horiz-adv-x="1024">
<font-face units-per-em="1024" ascent="960" descent="-64" />
<missing-glyph horiz-adv-x="1024" />
<glyph unicode="&#x20;" horiz-adv-x="512" d="" />
<glyph unicode="&#xe900;" glyph-name="light-bulb" d="M358.4 277.504c-122.070 58.886-204.8 181.69-204.8 323.817 0 197.939 160.461 358.4 358.4 358.4s358.4-160.461 358.4-358.4c0-142.127-82.729-264.931-202.66-322.885l-2.14-0.933v-136.704h-307.2v136.704zM358.4 89.6h307.2v-76.8c0-42.496-34.304-76.8-76.8-76.8h-153.6c-42.415 0-76.8 34.385-76.8 76.8v0 76.8zM460.8 350.72v-107.52h102.4v107.52c117.686 24.652 204.8 127.567 204.8 250.828 0 141.385-114.615 256-256 256s-256-114.615-256-256c0-123.261 87.114-226.176 203.133-250.535l1.667-0.293z" />
<glyph unicode="&#xe901;" glyph-name="settings1" d="M1007.56 774.415l-140.006-140.006c-12.948-12.964-30.833-20.966-50.58-20.966-19.768 0-37.693 8.003-50.647 20.966l-33.746 33.731c-12.954 12.964-20.936 30.858-20.936 50.627s7.982 37.652 20.936 50.606l140.006 140.006c-85.596 33.536-186.68 15.764-255.846-53.407-93.184-93.169-93.184-244.244 0-337.408 93.189-93.189 244.244-93.189 337.408 0 69.192 69.161 86.953 170.235 53.412 255.852zM256.42 342.702l-145.285-134.707c-25.682-23.828-42.010-57.667-42.726-95.462s14.321-72.212 39.101-96.988l6.241-6.236c24.76-24.771 59.177-39.818 96.973-39.101 37.816 0.707 71.619 17.034 95.457 42.737l134.707 145.285-184.468 184.474zM250.076 67.538c-23.265-23.311-61.041-23.311-84.347 0-23.286 23.286-23.286 61.061 0 84.347 23.306 23.311 61.082 23.311 84.347 0 23.286-23.286 23.286-61.061 0-84.347zM483.615 572.191c-9.226 0-17.577-3.722-23.613-9.769l-155.208-155.223c-6.057-6.042-9.779-14.397-9.779-23.613 0-9.231 3.722-17.582 9.779-23.613l347.52-347.546c55.946-55.916 146.555-55.895 202.455 0 55.926 55.91 55.926 146.54 0 202.455l-347.54 347.54c-6.036 6.047-14.382 9.769-23.613 9.769zM721.495 101.847c9.272-9.283 9.272-24.463 0-33.736-9.272-9.288-24.474-9.288-33.746 0l-303.667 303.667c-9.288 9.272-9.288 24.453 0 33.746 9.272 9.272 24.453 9.272 33.741 0l303.672-303.677zM799.109 179.451c9.272-9.283 9.272-24.463 0-33.746s-24.474-9.283-33.746 0l-303.667 303.683c-9.308 9.283-9.308 24.463 0 33.741 9.252 9.283 24.453 9.283 33.72-0.010l303.693-303.667zM97.014 680.31l37.96 1.321 198.508-198.497 50.601 50.616-198.482 198.482 1.311 37.97c0.102 3.22-0.594 6.528-2.212 9.59-1.613 3.067-3.988 5.494-6.733 7.224l-127.34 80.169-50.627-50.596 80.215-127.37c1.7-2.744 4.157-5.074 7.204-6.702 3.067-1.618 6.364-2.319 9.595-2.207z" />
<glyph unicode="&#xe902;" glyph-name="info" d="M662.814 169.807l-10.149-41.477c-30.446-12.015-54.754-21.158-72.857-27.442-18.125-6.314-39.181-9.441-63.18-9.441-36.847 0-65.507 9.033-85.951 26.954-20.443 18.008-30.665 40.814-30.665 68.482 0 10.71 0.744 21.727 2.282 32.954 1.553 11.242 4.030 23.899 7.415 38.043l38.036 134.633c3.383 12.89 6.263 25.11 8.567 36.658 2.333 11.485 3.463 22.047 3.463 31.554 0 17.191-3.558 29.221-10.644 35.98-7.087 6.744-20.611 10.163-40.69 10.163-9.835 0-19.94-1.575-30.242-4.623-10.345-3.061-19.189-6.015-26.619-8.757l10.17 41.506c24.92 10.149 48.739 18.832 71.522 26.042 22.784 7.233 44.313 10.849 64.676 10.849 36.592 0 64.836-8.844 84.667-26.531 19.831-17.702 29.731-40.646 29.731-68.927 0-5.848-0.656-16.156-2.049-30.891-1.364-14.771-3.909-28.295-7.611-40.602l-37.875-134.087c-3.106-10.768-5.898-23.082-8.326-36.938-2.508-13.765-3.696-24.278-3.696-31.336 0-17.804 3.966-29.965 11.92-36.425 8.020-6.459 21.829-9.675 41.448-9.675 9.201 0 19.678 1.633 31.321 4.841 11.606 3.193 20.079 6.015 25.321 8.479zM672.418 732.776c0-23.363-8.807-43.314-26.495-59.726-17.651-16.462-38.911-24.701-63.801-24.701-24.949 0-46.271 8.239-64.129 24.701-17.819 16.411-26.75 36.359-26.75 59.726 0 23.316 8.931 43.302 26.75 59.915 17.819 16.586 39.181 24.878 64.129 24.878 24.876 0 46.15-8.312 63.801-24.878 17.702-16.616 26.495-36.607 26.495-59.915zM512-36.835c-267.345 0-484.835 217.497-484.835 484.835 0 267.345 217.49 484.835 484.835 484.835 267.337 0 484.835-217.49 484.835-484.835 0-267.337-217.497-484.835-484.835-484.835zM512 867.757c-231.452 0-419.757-188.305-419.757-419.757s188.305-419.757 419.757-419.757 419.757 188.305 419.757 419.757-188.305 419.757-419.757 419.757z" />
<glyph unicode="&#xe903;" glyph-name="phone" d="M590.63 369.37c-101.338-101.338-218.688-198.208-265.062-151.821-66.419 66.406-107.366 124.25-253.76 6.592-146.406-117.709-33.958-196.134 30.374-260.493 74.24-74.227 350.989-3.904 624.538 269.606 273.51 273.574 343.885 550.323 269.594 624.589-64.346 64.346-142.771 176.755-260.429 30.336-117.683-146.355-59.866-187.315 6.566-253.734 46.362-46.387-50.483-163.725-151.821-265.075z" />
<glyph unicode="&#xe904;" glyph-name="measure" d="M712 508h-80c-11.2 0-20 8.8-20 20s8.8 20 20 20h80c11.2 0 20-8.8 20-20s-8.8-20-20-20zM712 668h-80c-11.2 0-20 8.8-20 20s8.8 20 20 20h80c11.2 0 20-8.8 20-20s-8.8-20-20-20zM712 828h-80c-11.2 0-20 8.8-20 20s8.8 20 20 20h80c11.2 0 20-8.8 20-20s-8.8-20-20-20zM732 368c0 11.2-8.8 20-20 20h-27.2l36.8-36.8c6.4 3.2 10.4 9.6 10.4 16.8zM652 908h160v-647.2l40-40v707.2c0 11.2-8.8 20-20 20h-200c-11.2 0-20-8.8-20-20v-467.2l40-40v487.2zM992-52h-960c-11.2 0-20 8.8-20 20v960c0 8 4.8 15.2 12 18.4s16 1.6 21.6-4l960-960c5.6-5.6 7.2-14.4 4-21.6-2.4-8-9.6-12.8-17.6-12.8zM52-12h892l-892 892v-892zM112 188h-80c-11.2 0-20 8.8-20 20s8.8 20 20 20h80c11.2 0 20-8.8 20-20s-8.8-20-20-20zM112 28h-80c-11.2 0-20 8.8-20 20s8.8 20 20 20h80c11.2 0 20-8.8 20-20s-8.8-20-20-20zM112 348h-80c-11.2 0-20 8.8-20 20s8.8 20 20 20h80c11.2 0 20-8.8 20-20s-8.8-20-20-20zM112 508h-80c-11.2 0-20 8.8-20 20s8.8 20 20 20h80c11.2 0 20-8.8 20-20s-8.8-20-20-20zM112 668h-80c-11.2 0-20 8.8-20 20s8.8 20 20 20h80c11.2 0 20-8.8 20-20s-8.8-20-20-20zM552 148h-320c-11.2 0-20 8.8-20 20v320c0 8 4.8 15.2 12 18.4s16 1.6 21.6-4l320-320c5.6-5.6 7.2-14.4 4-21.6-2.4-8-9.6-12.8-17.6-12.8zM252 188h252l-252 252v-252z" />
<glyph unicode="&#xe905;" glyph-name="cart" d="M892.368 323.091l119.147 356.616c5.979 17.144 1.453 27.45-3.369 34.254-12.354 17.408-37.756 17.573-42.678 17.573l-673.363 0.132-17.97 85.256c-4.856 20.117-19.192 39.308-48.095 39.308h-189.242c-19.621 0-30.291-9.183-30.291-27.516v-49.218c0-17.738 10.636-22.363 30.984-22.363h159.777l122.285-519.168c-19.423-20.579-29.993-50.572-29.993-78.551 0-61.572 49.020-118.322 111.649-118.322 59.128 0 103.457 55.395 110.658 88.427h238.163c7.201-33.032 43.107-89.749 110.625-89.749 61.539 0 111.583 53.314 111.583 114.787 0 61.143-37.161 115.349-110.955 115.349-30.687 0-67.089-16.516-84.001-41.29h-292.633c-21.24 33.032-50.242 43.272-79.575 44.428l-4.063 21.636h445.242c33.561 0 40.167 12.222 46.113 28.408zM861.483 197.865c23.156 0 41.951-18.795 41.951-41.951s-18.795-41.951-41.951-41.951-41.984 18.762-41.984 41.951c0.033 23.156 18.828 41.951 41.984 41.951zM442.699 155.914c0-23.42-19.027-42.479-42.38-42.479-23.42 0.066-42.479 19.060-42.479 42.479s19.060 42.479 42.479 42.479c23.354 0 42.38-19.060 42.38-42.479z" />
<glyph unicode="&#xe906;" glyph-name="email" d="M896 784h-768c-70.688 0-128-57.344-128-128v-416c0-70.688 57.312-128 128-128h768c70.688 0 128 57.312 128 128v416c0 70.656-57.312 128-128 128zM64 616l223.968-168-223.968-168v336zM960 240c0-35.328-28.736-64-64-64h-768c-35.296 0-64 28.672-64 64l250.624 188 139.776-104.864c17.056-12.736 37.312-19.2 57.6-19.2 20.256 0 40.512 6.432 57.568 19.2l139.808 104.864 250.624-188zM960 280l-224 168 224 168v-336zM550.368 348.736c-11.168-8.384-24.416-12.8-38.368-12.8s-27.232 4.448-38.4 12.8l-409.6 307.264c0 35.296 28.704 64 64 64h768c35.264 0 64-28.704 64-64l-409.632-307.264z" />
<glyph unicode="&#xe907;" glyph-name="config" horiz-adv-x="1476" d="M683.768 191.996h-26.175v-10.899h14.078c3.635 3.895 7.694 7.541 12.098 10.899zM1197.197 894.566h-465.177c-41.122 0-74.428-33.309-74.428-74.424v-219.763l117.381-0.023c-14.369 6.339-24.347 20.656-24.347 37.442v122.794c0 22.706 18.233 40.944 40.937 40.944h346.085c22.696 0 40.933-18.237 40.933-40.942v-122.796c0-22.704-18.237-40.942-40.933-40.942h-274.563c12.483-3.883 22.764-10.899 29.592-20.519 9.98-14.139 11.88-30.423 5.655-48.407l-64.012-191.572c5.855-7.778 9.343-17.439 9.343-27.916 0-21.193-14.205-39.072-33.597-44.677l-11.125-33.292-0.109-0.299c-2.552-6.959-5.71-13.738-10.453-19.603 19.616-5.732 36.475-16.376 49.754-31.584 18.461-21.137 28.629-50.16 28.629-81.719 0-30.683-11.872-59.933-33.434-82.356-4.811-5.003-9.978-9.484-15.409-13.478h379.277c41.12 0 74.426 33.305 74.426 74.424v744.284c-0.002 41.118-33.307 74.424-74.426 74.424zM964.61 94.466c-25.676 0-46.516 20.838-46.516 46.52 0 25.674 20.842 46.512 46.516 46.512s46.52-20.838 46.52-46.512c0-25.682-20.847-46.52-46.52-46.52zM964.61 261.931c-25.676 0-46.516 20.836-46.516 46.512s20.842 46.522 46.516 46.522 46.52-20.847 46.52-46.522-20.847-46.512-46.52-46.512zM964.61 429.392c-25.676 0-46.516 20.842-46.516 46.52 0 25.676 20.842 46.516 46.516 46.516s46.52-20.842 46.52-46.516c0-25.678-20.847-46.52-46.52-46.52zM1132.079 94.466c-25.686 0-46.522 20.838-46.522 46.52 0 25.674 20.838 46.512 46.522 46.512 25.672 0 46.51-20.838 46.51-46.512 0-25.682-20.838-46.52-46.51-46.52zM1132.079 261.931c-25.686 0-46.522 20.836-46.522 46.512s20.838 46.522 46.522 46.522c25.672 0 46.51-20.847 46.51-46.522s-20.838-46.512-46.51-46.512zM1132.079 429.392c-25.686 0-46.522 20.842-46.522 46.52 0 25.676 20.838 46.516 46.522 46.516 25.672 0 46.51-20.842 46.51-46.516 0-25.678-20.838-46.52-46.51-46.52zM778.090 237.775l99.334 297.284c4.977 14.281 1.21 22.87-2.793 28.545-10.301 14.508-31.492 14.655-35.604 14.655l-561.328 0.109-14.979 71.074c-4.035 16.767-15.999 32.768-40.096 32.768h-157.743c-16.349 0-25.252-7.649-25.252-22.938v-41.036c0-14.778 8.847-18.637 25.815-18.637h133.194l101.945-432.787c-16.189-17.156-25.008-42.164-25.008-65.483 0-51.333 40.874-98.636 93.098-98.636 49.265 0 86.241 46.174 92.238 73.712h198.539c5.997-27.537 35.926-74.813 92.207-74.813 51.309 0 93.018 44.452 93.018 95.678 0 50.96-30.978 96.164-92.479 96.164-25.6 0-55.935-13.769-70.025-34.423h-243.958c-17.695 27.537-41.869 36.061-66.341 37.032l-3.389 18.045h371.18c27.967-0.004 33.483 10.187 38.429 23.687zM752.357 133.384c19.306 0 34.959-15.679 34.959-34.986 0-19.284-15.653-34.986-34.959-34.986-19.309 0-35.013 15.651-35.013 34.986 0.027 19.306 15.704 34.986 35.013 34.986zM403.253 98.398c0-19.524-15.866-35.418-35.334-35.418-19.524 0.055-35.416 15.895-35.416 35.418s15.895 35.414 35.416 35.414c19.47 0 35.334-15.892 35.334-35.414z" />
<glyph unicode="&#xe908;" glyph-name="delivery" d="M884.144 206.107c41.12 0 74.424 33.315 74.424 74.428v465.179c0 41.122-33.305 74.43-74.424 74.43h-409.356c-41.122 0-74.43-33.309-74.43-74.43v-74.428h-113.132c-24.93 0-47.063-9.867-63.091-25.674l-94.124-94.525c-16.935-16.753-27.365-40.192-27.365-65.872v-186.995c-21.221-4.289-37.212-23.079-37.212-45.588 0-25.676 20.842-46.524 46.516-46.524h65.489c4.653-72.757 65.305-130.251 139.186-130.251 73.886 0 134.539 57.491 139.19 130.251h130.8c4.827-72.757 65.489-130.251 139.366-130.251 73.869 0 134.537 57.491 139.188 130.251h18.975zM363.145 215.411c0-25.672-20.842-46.52-46.52-46.52-25.674 0-46.516 20.849-46.516 46.52 0 25.676 20.842 46.524 46.516 46.524 25.678-0.002 46.52-20.849 46.52-46.524zM772.502 215.411c0-25.672-20.849-46.52-46.522-46.52s-46.512 20.849-46.512 46.52c0 25.676 20.838 46.524 46.512 46.524s46.522-20.849 46.522-46.524zM195.682 429.392v47.063c0 18.608 7.449 27.365 21.402 41.32l39.995 40.012c12.665 12.648 22.333 20.464 40.577 20.464h102.699v-148.859h-204.673z" />
<glyph unicode="&#xe909;" glyph-name="images" d="M915.5 679.4l-165 8-9.6 107.6c-2 22.6-22.2 38.4-45.8 36.6l-592-48.6c-23.6-2-40.6-21-38.8-43.4l42.4-471.6c2-22.6 22.4-38.4 45.8-36.6l30 2.4-4.8-91.6c-1.2-25.2 18.4-45.6 44.8-47l660.4-31.4c26.4-1.2 48.2 17.2 49.6 42.4l27.8 526.6c1.2 25-18.6 45.4-44.8 46.6zM205.5 668.8l-14.2-269.6-34.8-49.4-32 356c0 0.4 0 0.6 0 1s0 0.6 0 1c1 10 8.6 18 19 18.8l522 42.8c10.4 0.8 19.4-6 21-15.8 0-0.4 0.6-0.4 0.6-0.8 0-0.2 0.6-0.4 0.6-0.8l5.4-61.6-438 21c-26.4 0.8-48.4-17.6-49.6-42.6zM873.7 195l-93.4 110.6-55 65.4c-4.8 5.8-12.6 10.6-21.2 11s-15-3-22.2-8.2l-32.8-23.8c-7-4.2-12.4-7-19.8-6.6-7.2 0.4-13.6 3.2-18.2 7.6-1.6 1.6-4.6 4.4-7 6.8l-85.6 97.8c-6.2 7.8-16.4 12.8-27.6 13.4-11.4 0.6-22.4-4.2-29.6-11.2l-215.8-232.4 0.6 13.6 13.6 257.8 6.6 125.8c0 0.4 0 0.8 0 1 0 0.4 0 0.8 0 1 2.8 10.8 12.4 18.6 23.8 18l582.4-28c11.6-0.6 20.6-9.4 20.8-20.4 0-0.4 0.6-0.6 0.6-1s0.6-0.6 0.6-1l-20.8-397.2zM746.7 435.2c38.8 0 70.4 31.6 70.4 70.4s-31.4 70.4-70.4 70.4c-38.8 0-70.4-31.4-70.4-70.4s31.4-70.4 70.4-70.4z" />
<glyph unicode="&#xe90a;" glyph-name="check" d="M922.325 822.378c-12.501 12.587-32.853 12.587-45.269 0l-477.056-474.837c-12.501-12.672-32.896-12.672-45.312 0l-209.024 212.864c-6.187 6.315-14.293 9.429-22.443 9.472-8.235 0.043-16.597-3.072-22.869-9.472l-92.373-83.029c-6.144-6.315-9.472-14.208-9.472-22.443 0-8.277 3.328-16.939 9.515-23.211l210.773-221.184c12.459-12.629 32.896-33.109 45.312-45.653l90.624-91.349c12.459-12.501 32.811-12.501 45.312 0l612.949 611.84c12.501 12.544 12.501 33.152 0 45.696l-90.667 91.307z" />
<glyph unicode="&#xe90b;" glyph-name="ArrowLeft" horiz-adv-x="536" d="M510.74 960l24.955-24.884-485.874-487.107 485.874-487.107-24.955-24.884-510.74 511.991z" />
<glyph unicode="&#xe90c;" glyph-name="ArrowRight" horiz-adv-x="536" d="M24.955-64l-24.955 24.884 485.891 487.125-485.891 487.107 24.955 24.884 510.74-511.991z" />
<glyph unicode="&#xe90d;" glyph-name="ArrowUp" d="M1025.836 201.181l-24.929-25-488.007 486.753-487.954-486.753-24.947 25 512.9 511.647z" />
<glyph unicode="&#xe90e;" glyph-name="Cross" d="M25.838 960.017l998.153-998.153-25.836-25.836-998.153 998.153 25.836 25.836zM998.171 960.004l25.836-25.836-998.153-998.153-25.836 25.836 998.153 998.153z" />
<glyph unicode="&#xe90f;" glyph-name="home" d="M988.8 512l-92.8 92.736v227.264c0 35.2-28.8 64-64 64h-64c-35.2 0-64-28.8-64-64v-35.392l-128 127.872c-17.472 16.512-33.472 35.52-64 35.52s-46.528-19.008-64-35.52l-412.8-412.48c-19.968-20.8-35.2-35.968-35.2-64 0-36.032 27.648-64 64-64h64v-384c0-35.2 28.8-64 64-64h192v320c0 35.2 28.8 64 64 64h128c35.2 0 64-28.8 64-64v-320h192c35.2 0 64 28.8 64 64v384h64c36.352 0 64 27.968 64 64 0 28.032-15.232 43.2-35.2 64z" />
<glyph unicode="&#xe910;" glyph-name="ArrowDown" d="M0 687.828l24.929 25 488.007-486.753 487.971 486.753 24.929-25-512.9-511.647z" />
<glyph unicode="&#xe911;" glyph-name="rbu-spec" d="M810.581 106.624h-426.581v85.376h426.581v-85.376zM810.581 704h-426.581v-85.376h426.581v85.376zM810.581 533.419h-426.581v-85.419h426.581v85.419zM298.581 704h-85.077v-85.376h85.077v85.376zM810.581 362.624h-426.581v-85.205h426.581v85.205zM298.581 192h-85.077v-85.376h85.077v85.376zM298.581 533.419h-85.077v-85.419h85.077v85.419zM298.581 362.624h-85.077v-85.205h85.077v85.205zM981.504 917.419c0 23.509-19.328 42.581-42.923 42.581h-853.077c-23.765 0-42.923-19.072-42.923-42.581v-938.795c0-23.467 19.157-42.624 42.923-42.624h853.077c23.595 0 42.923 19.157 42.923 42.624v938.795zM896 21.419h-768v768h768v-768z" />
<glyph unicode="&#xe912;" glyph-name="design-details" d="M810.667 960c-119.467 0-213.333-93.867-213.333-213.333 0-29.867 8.533-59.733 17.067-85.333h-277.333c-34.133 25.6-76.8 42.667-123.733 42.667-119.467 0-213.333-93.867-213.333-213.333 0-102.4 85.333-187.733 170.667-209.067v-217.6h85.333v217.6c85.333 12.8 123.733 59.733 149.333 123.733h21.333c119.467 0 213.333-93.867 213.333-213.333s-93.867-213.333-213.333-213.333h-426.667v-42.667h426.667c140.8 0 256 115.2 256 256s-115.2 256-256 256h-4.267c4.267 12.8 4.267 29.867 4.267 42.667 0 46.933-17.067 93.867-42.667 128h256c29.867-42.667 85.333-72.533 128-81.067v-217.6h85.333v217.6c85.333 21.333 170.667 106.667 170.667 209.067 0 119.467-98.133 213.333-213.333 213.333zM213.333 362.667c-72.533 0-128 55.467-128 128s55.467 128 128 128 128-55.467 128-128-59.733-128-128-128zM810.667 618.667c-72.533 0-128 55.467-128 128s55.467 128 128 128 128-55.467 128-128-59.733-128-128-128z" />
<glyph unicode="&#xe913;" glyph-name="rbu-save" d="M832 384h-640v-64h640v64zM832 256h-640v-64h640v64zM832 128h-640v-64h640v64zM832 960h-64v-416h-512v416h-256v-1024h1024v832l-192 192zM896 0h-768v448h768v-448zM704 896h-128v-288h128v288z" />
<glyph unicode="&#xe914;" glyph-name="design" horiz-adv-x="1153" d="M455.588 410.846c-21.94-24.168-27.321-41.507-56.048-86.914 18.553-12.956 54.291-42.919 79.047-94.507 49.446 28.362 72.499 32.691 98.701 54.753 171.038 144.057 589.987 660.425 575.561 675.363-15.24 15.879-546.658-383.506-697.261-548.694zM350.112 283.819c-74.324 13.136-147.636-33.849-196.605-151.24-49.039-117.382-136.543-164.38-153.506-161.506 91.34-33.042 369.843-117.56 439.074 204.188-29.364 77.166-88.964 108.557-88.964 108.557z" />
<glyph unicode="&#xe915;" glyph-name="help" d="M512-64c-282.322 0-512 229.685-512 512 0 282.322 229.678 512 512 512 282.315 0 512-229.678 512-512 0-282.315-229.685-512-512-512zM512 891.275c-244.42 0-443.275-198.855-443.275-443.275 0-244.413 198.855-443.275 443.275-443.275 244.413 0 443.275 198.862 443.275 443.275 0 244.42-198.855 443.275-443.275 443.275zM696.732 722.899c44.568-28.864 66.862-72.491 66.862-130.852 0-107.761-60.945-168.376-182.808-181.846l-9.621-82.745h-140.467l-8.659 146.246c59.007 4.481 101.342 14.583 127.003 30.308 25.648 15.71 38.493 36.713 38.493 63.021 0 21.167-6.907 37.524-20.693 49.070-13.8 11.546-34.486 17.319-62.052 17.319-28.232 0-50.678-8.178-67.35-24.535-16.686-16.357-26.308-40.575-28.864-72.642l-157.792 60.615c7.697 51.31 33.194 92.366 76.491 123.155s106.317 46.183 189.062 46.183c75.673 0 135.807-14.432 180.396-43.297zM569.729 255.296c16.357-14.116 24.535-34.005 24.535-59.66s-8.178-45.695-24.535-60.134c-16.357-14.432-38.967-21.641-67.831-21.641-29.51 0-52.437 7.216-68.794 21.641-16.357 14.439-24.535 34.479-24.535 60.134 0 25.648 8.178 45.544 24.535 59.66 16.357 14.102 39.283 21.167 68.794 21.167 28.864 0 51.475-7.065 67.831-21.167z" />
<glyph unicode="&#xe916;" glyph-name="rotate-left" horiz-adv-x="1182" d="M260.506 387.907c0 0 313.734-662.878 921.735-382.945-716.694 66.763-687.331 495.669-687.331 495.669l260.506 125.226-625.687 334.142-129.73-697.359 260.506 125.266z" />
<glyph unicode="&#xe917;" glyph-name="rotate-right" horiz-adv-x="1182" d="M1182.241 262.654l-129.73 697.359-625.687-334.142 260.506-125.226c0 0 29.363-428.906-687.331-495.669 608.001-279.933 921.735 382.945 921.735 382.945l260.506-125.266z" />
<glyph unicode="&#xe918;" glyph-name="drawing-3D" horiz-adv-x="1399" d="M907.257 774.68l-338.642 185.32-564.454-84.18-4.161-610.592 343.346-185.682 570.032 80.117-6.121 615.017zM584.444 907.041l243.39-133.182-243.39-35.962v169.144zM545.588 732.153l-190.445-28.13-270.661 144.489 461.098 68.773v-185.131zM371.069 667.088l174.511 25.786v-318.766l-174.511-25.779v318.758zM332.213 672.214v-329.62l-293.123-43.296 3.603 527.482 289.52-154.566zM332.213 303.315v-173.584l-252.103 136.348 252.103 37.236zM371.069 309.059l190.31 28.115 271.882-149.539-462.191-64.959v186.383zM584.444 368.832v329.786l284.296 42.007 5.284-531.078-289.58 159.285zM790.477 2.693l530.927 530.919-140.056 140.049-530.934-530.919c-2.842-2.284-5.050-5.404-6.053-9.203l-41.276-156.805c-0.083-0.302-0.083-0.618-0.143-0.912-0.143-0.618-0.219-1.221-0.294-1.862-0.060-0.565-0.075-1.108-0.075-1.673 0-0.58 0.015-1.1 0.075-1.696 0.075-0.633 0.158-1.251 0.294-1.854 0.068-0.302 0.068-0.611 0.143-0.905 0.053-0.219 0.158-0.415 0.226-0.633 0.173-0.58 0.407-1.153 0.648-1.726 0.219-0.505 0.437-1.010 0.686-1.477 0.279-0.49 0.58-0.957 0.912-1.417 0.309-0.475 0.626-0.95 0.98-1.394s0.754-0.814 1.146-1.221 0.784-0.784 1.221-1.138 0.897-0.678 1.379-0.987c0.475-0.324 0.935-0.633 1.447-0.905 0.467-0.249 0.957-0.467 1.462-0.678 0.573-0.249 1.138-0.475 1.726-0.663 0.219-0.060 0.415-0.166 0.633-0.226 0.294-0.083 0.603-0.083 0.912-0.158 0.603-0.128 1.221-0.204 1.854-0.279 0.573-0.060 1.108-0.075 1.688-0.075 0.565 0 1.108 0.015 1.681 0.060 0.633 0.090 1.251 0.166 1.862 0.294 0.302 0.075 0.618 0.075 0.912 0.158l156.82 41.276c3.806 0.972 6.942 3.181 9.196 6.053zM666.431 18.695c-4.025 4.033-9.55 5.623-14.796 4.892l23.992 91.167 86.879-86.871-91.183-23.985c0.746 5.246-0.844 10.764-4.892 14.796zM1345.2 557.408l-140.049 140.056 53.638 53.645c0 0 95.396-34.025 140.049-140.064l-53.638-53.638zM45.226-64h-26.382c-10.409 0-18.844 8.435-18.844 18.844s8.435 18.844 18.844 18.844h26.382c10.409 0 18.844-8.435 18.844-18.844s-8.435-18.844-18.844-18.844zM527.927-64h-48.271c-10.409 0-18.844 8.435-18.844 18.844s8.435 18.844 18.844 18.844h48.271c10.409 0 18.844-8.435 18.844-18.844s-8.435-18.844-18.844-18.844zM431.385-64h-48.271c-10.409 0-18.844 8.435-18.844 18.844s8.435 18.844 18.844 18.844h48.271c10.409 0 18.844-8.435 18.844-18.844s-8.435-18.844-18.844-18.844zM334.843-64h-48.263c-10.409 0-18.844 8.435-18.844 18.844s8.435 18.844 18.844 18.844h48.271c10.409 0 18.844-8.435 18.844-18.844s-8.442-18.844-18.852-18.844zM238.309-64h-48.271c-10.409 0-18.844 8.435-18.844 18.844s8.435 18.844 18.844 18.844h48.271c10.409 0 18.844-8.435 18.844-18.844s-8.435-18.844-18.844-18.844zM141.767-64h-48.271c-10.409 0-18.844 8.435-18.844 18.844s8.435 18.844 18.844 18.844h48.271c10.409 0 18.844-8.435 18.844-18.844s-8.442-18.844-18.844-18.844zM602.579-64h-26.382c-10.409 0-18.844 8.435-18.844 18.844s8.435 18.844 18.844 18.844h26.382c10.409 0 18.844-8.435 18.844-18.844s-8.435-18.844-18.844-18.844z" />
<glyph unicode="&#xe919;" glyph-name="circle-plus" d="M256 512v-128h192v-192h128v192h192v128h-192v192h-128v-192zM512-64c-282.77 0-512 229.23-512 512s229.23 512 512 512c282.77 0 512-229.23 512-512s-229.23-512-512-512z" />
<glyph unicode="&#xe91a;" glyph-name="background" horiz-adv-x="1019" d="M847.631-64h-38.684c-7.083 0-12.809 5.726-12.809 12.809s5.726 12.809 12.809 12.809h38.684c7.083 0 12.809-5.726 12.809-12.809s-5.726-12.809-12.809-12.809zM770.264-64h-38.684c-7.083 0-12.809 5.726-12.809 12.809s5.726 12.809 12.809 12.809h38.684c7.083 0 12.809-5.726 12.809-12.809s-5.726-12.809-12.809-12.809zM692.897-64h-38.684c-7.083 0-12.809 5.726-12.809 12.809s5.726 12.809 12.809 12.809h38.684c7.083 0 12.809-5.726 12.809-12.809s-5.726-12.809-12.809-12.809zM615.53-64h-38.684c-7.083 0-12.809 5.726-12.809 12.809s5.726 12.809 12.809 12.809h38.684c7.083 0 12.809-5.726 12.809-12.809s-5.726-12.809-12.809-12.809zM538.163-64h-38.684c-7.071 0-12.809 5.726-12.809 12.809s5.738 12.809 12.809 12.809h38.684c7.083 0 12.809-5.726 12.809-12.809s-5.726-12.809-12.809-12.809zM460.795-64h-38.684c-7.071 0-12.809 5.726-12.809 12.809s5.738 12.809 12.809 12.809h38.684c7.071 0 12.809-5.726 12.809-12.809s-5.738-12.809-12.809-12.809zM383.428-64h-38.684c-7.071 0-12.809 5.726-12.809 12.809s5.738 12.809 12.809 12.809h38.684c7.071 0 12.809-5.726 12.809-12.809s-5.738-12.809-12.809-12.809zM306.061-64h-0.141c-14.193 0-28.244 2.139-41.758 6.341-6.75 2.101-10.529 9.299-8.416 16.050 2.101 6.75 9.287 10.491 16.037 8.416 11.054-3.446 22.544-5.188 34.149-5.188 7.071 0 12.873-5.726 12.873-12.809s-5.674-12.809-12.745-12.809zM886.302-63.769c-6.712 0-12.361 5.239-12.771 12.028-0.423 7.058 4.944 13.129 12.015 13.565 11.605 0.717 23.005 3.164 33.867 7.314 6.558 2.498 14.013-0.781 16.537-7.404 2.511-6.61-0.794-14.013-7.404-16.537-13.283-5.072-27.219-8.083-41.438-8.941-0.282-0.013-0.551-0.026-0.807-0.026zM233.344-41.302c-2.511 0-5.060 0.743-7.276 2.28-11.669 8.083-22.057 17.843-30.844 29-4.381 5.559-3.433 13.603 2.126 17.984 5.559 4.368 13.603 3.42 17.984-2.126 7.212-9.159 15.742-17.164 25.324-23.787 5.815-4.022 7.263-12.015 3.241-17.83-2.498-3.599-6.494-5.521-10.555-5.521zM957.482-36.64c-3.804 0-7.557 1.678-10.081 4.893-4.368 5.559-3.42 13.603 2.152 17.984 9.184 7.212 17.19 15.73 23.799 25.285 4.022 5.815 11.989 7.263 17.83 3.241 5.815-4.022 7.263-12.015 3.241-17.83-8.083-11.656-17.843-22.032-29.038-30.832-2.344-1.845-5.136-2.741-7.903-2.741zM186.245 18.568c-5.149 0-10.004 3.125-11.964 8.223-5.098 13.296-8.121 27.245-8.992 41.45-0.436 7.071 4.944 13.142 12.002 13.578 7.109 0.256 13.142-4.944 13.565-12.002 0.717-11.618 3.189-23.005 7.34-33.855 2.536-6.61-0.769-14.026-7.378-16.549-1.499-0.564-3.049-0.845-4.573-0.845zM1000.854 26.023c-1.268 0-2.549 0.192-3.83 0.589-6.75 2.114-10.503 9.299-8.39 16.050 3.471 11.067 5.213 22.595 5.213 34.252 0 7.083 5.726 13.078 12.809 13.078s12.809-5.469 12.809-12.54v-0.538c0-14.257-2.152-28.359-6.392-41.899-1.704-5.482-6.763-8.992-12.22-8.992zM177.829 94.884c-7.071 0-12.809 5.726-12.809 12.809v38.696c0 7.083 5.738 12.809 12.809 12.809s12.809-5.726 12.809-12.809v-38.696c0-7.071-5.738-12.809-12.809-12.809zM1006.656 103.338c-7.083 0-12.809 5.726-12.809 12.809v38.684c0 7.083 5.726 12.809 12.809 12.809s12.809-5.726 12.809-12.809v-38.684c0-7.083-5.726-12.809-12.809-12.809zM177.829 172.252c-7.071 0-12.809 5.726-12.809 12.809v38.696c0 7.083 5.738 12.809 12.809 12.809s12.809-5.726 12.809-12.809v-38.696c0-7.071-5.738-12.809-12.809-12.809zM1006.656 180.706c-7.083 0-12.809 5.726-12.809 12.809v38.684c0 7.083 5.726 12.809 12.809 12.809s12.809-5.726 12.809-12.809v-38.684c0-7.083-5.726-12.809-12.809-12.809zM177.829 249.631c-7.071 0-12.809 5.726-12.809 12.809v38.696c0 7.083 5.738 12.809 12.809 12.809s12.809-5.726 12.809-12.809v-38.696c0-7.083-5.738-12.809-12.809-12.809zM1006.656 258.073c-7.083 0-12.809 5.726-12.809 12.809v38.684c0 7.083 5.726 12.809 12.809 12.809s12.809-5.726 12.809-12.809v-38.684c0-7.083-5.726-12.809-12.809-12.809zM177.829 326.999c-7.071 0-12.809 5.726-12.809 12.809v38.696c0 7.083 5.738 12.809 12.809 12.809s12.809-5.726 12.809-12.809v-38.696c0-7.083-5.738-12.809-12.809-12.809zM1006.656 335.44c-7.083 0-12.809 5.726-12.809 12.809v38.684c0 7.083 5.726 12.809 12.809 12.809s12.809-5.726 12.809-12.809v-38.684c0-7.083-5.726-12.809-12.809-12.809zM177.829 404.366c-7.071 0-12.809 5.726-12.809 12.809v38.696c0 7.071 5.738 12.809 12.809 12.809s12.809-5.738 12.809-12.809v-38.696c0-7.083-5.738-12.809-12.809-12.809zM1006.656 412.807c-7.083 0-12.809 5.726-12.809 12.809v38.671c0 7.071 5.726 12.809 12.809 12.809s12.809-5.738 12.809-12.809v-38.684c0-7.071-5.726-12.796-12.809-12.796zM177.829 481.733c-7.071 0-12.809 5.738-12.809 12.809v38.684c0 7.071 5.738 12.809 12.809 12.809s12.809-5.738 12.809-12.809v-38.684c0-7.071-5.738-12.809-12.809-12.809zM1006.656 490.161c-7.083 0-12.809 5.738-12.809 12.809v38.684c0 7.071 5.726 12.809 12.809 12.809s12.809-5.738 12.809-12.809v-38.684c0-7.071-5.726-12.809-12.809-12.809zM177.829 559.1c-7.071 0-12.809 5.738-12.809 12.809v38.684c0 7.071 5.738 12.809 12.809 12.809s12.809-5.738 12.809-12.809v-38.684c0-7.071-5.738-12.809-12.809-12.809zM1006.656 567.528c-7.083 0-12.809 5.738-12.809 12.809v38.684c0 7.071 5.726 12.809 12.809 12.809s12.809-5.738 12.809-12.809v-38.684c0-7.071-5.726-12.809-12.809-12.809zM177.829 636.608c-7.071 0-12.809 5.598-12.809 12.668v0.269c0 14.154 2.126 28.167 6.302 41.617 2.101 6.763 9.299 10.542 16.037 8.428 6.75-2.101 10.529-9.287 8.428-16.037-3.42-10.99-5.149-22.429-5.149-34.008 0-7.071-5.738-12.937-12.809-12.937zM1006.4 644.895c-6.686 0-12.335 5.201-12.771 11.989-0.756 11.618-3.254 23.005-7.416 33.855-2.549 6.597 0.743 14.013 7.34 16.549 6.571 2.536 14.013-0.73 16.562-7.352 5.098-13.257 8.159-27.194 9.082-41.399 0.448-7.058-4.906-13.155-11.964-13.603-0.269-0.026-0.564-0.038-0.833-0.038zM200.424 709.197c-2.511 0-5.047 0.73-7.263 2.267-5.828 4.022-7.288 12.002-3.266 17.817 8.070 11.695 17.817 22.083 28.974 30.883 5.559 4.368 13.616 3.42 17.984-2.126 4.381-5.559 3.433-13.603-2.126-17.984-9.146-7.212-17.139-15.73-23.748-25.324-2.485-3.599-6.481-5.534-10.555-5.534zM979.040 715.973c-3.792 0-7.532 1.665-10.055 4.867-7.224 9.133-15.755 17.113-25.349 23.723-5.828 4.009-7.288 11.989-3.279 17.817 3.996 5.815 11.964 7.276 17.817 3.279 11.695-8.057 22.109-17.792 30.908-28.936 4.394-5.546 3.458-13.603-2.101-17.984-2.357-1.87-5.162-2.767-7.942-2.767zM260.269 756.386c-5.136 0-9.991 3.125-11.951 8.223-2.549 6.597 0.756 14.013 7.352 16.549 13.283 5.111 27.232 8.159 41.438 9.043 7.019 0.474 13.142-4.919 13.578-11.989 0.436-7.058-4.932-13.142-11.989-13.578-11.605-0.717-22.98-3.202-33.842-7.378-1.499-0.602-3.061-0.871-4.586-0.871zM916.262 759.14c-1.255 0-2.523 0.192-3.792 0.576-10.952 3.394-22.365 5.124-33.906 5.124-7.083 0-13.014 5.738-13.014 12.809s5.534 12.809 12.604 12.809h0.397c14.128 0 28.078-2.114 41.489-6.276 6.763-2.101 10.542-9.274 8.441-16.024-1.691-5.495-6.763-9.018-12.22-9.018zM839.472 764.84h-38.684c-7.083 0-12.809 5.738-12.809 12.809s5.726 12.809 12.809 12.809h38.684c7.083 0 12.809-5.738 12.809-12.809s-5.738-12.809-12.809-12.809zM762.105 764.84h-38.684c-7.083 0-12.809 5.738-12.809 12.809s5.726 12.809 12.809 12.809h38.684c7.083 0 12.809-5.738 12.809-12.809s-5.738-12.809-12.809-12.809zM684.737 764.84h-38.684c-7.083 0-12.809 5.738-12.809 12.809s5.726 12.809 12.809 12.809h38.684c7.083 0 12.809-5.738 12.809-12.809s-5.738-12.809-12.809-12.809zM607.37 764.84h-38.684c-7.083 0-12.809 5.738-12.809 12.809s5.726 12.809 12.809 12.809h38.684c7.083 0 12.809-5.738 12.809-12.809s-5.738-12.809-12.809-12.809zM529.99 764.84h-38.684c-7.071 0-12.809 5.738-12.809 12.809s5.738 12.809 12.809 12.809h38.684c7.083 0 12.809-5.738 12.809-12.809s-5.726-12.809-12.809-12.809zM452.636 764.84h-38.684c-7.071 0-12.809 5.738-12.809 12.809s5.738 12.809 12.809 12.809h38.684c7.071 0 12.809-5.738 12.809-12.809s-5.738-12.809-12.809-12.809zM375.269 764.84h-38.684c-7.071 0-12.809 5.738-12.809 12.809s5.738 12.809 12.809 12.809h38.684c7.071 0 12.809-5.738 12.809-12.809s-5.738-12.809-12.809-12.809zM713.545 105.542h-572.645c-77.7 0-140.9 63.213-140.9 140.913v572.645c0 77.687 63.213 140.9 140.9 140.9h572.632c77.7 0 140.913-63.213 140.913-140.9v-572.632c0.013-77.713-63.2-140.926-140.9-140.926zM140.9 934.382c-63.572 0-115.282-51.723-115.282-115.282v-572.632c0-63.572 51.723-115.295 115.282-115.295h572.632c63.572 0 115.295 51.723 115.295 115.295v572.632c0 63.572-51.723 115.282-115.295 115.282h-572.632z" />
<glyph unicode="&#xe91b;" glyph-name="railground" horiz-adv-x="1877" d="M934.42-64c-2.503 0-5.006 0.76-7.144 2.281l-922.017 650.314c-3.295 2.329-5.259 6.099-5.259 10.138v195.856c0 4.499 2.439 8.649 6.368 10.835 3.944 2.186 8.76 2.091 12.578-0.301l919.308-570.587 919.308 570.603c3.818 2.392 8.633 2.487 12.578 0.301 3.929-2.186 6.368-6.336 6.368-10.835v-184.958c0-4.008-1.948-7.778-5.212-10.106l-929.699-661.229c-2.139-1.537-4.657-2.313-7.176-2.313zM24.807 605.165l909.582-641.554 917.312 652.437v156.238l-906.889-562.889c-4.008-2.503-9.077-2.503-13.085 0l-906.92 562.889v-167.121zM938.254 582.639c-2.059 0-4.134 0.523-6.004 1.552l-631.891 349.433-282.585-135.772c-6.146-3.010-13.576-0.38-16.538 5.798-2.978 6.178-0.38 13.591 5.798 16.554l288.367 138.56c3.612 1.758 7.857 1.632 11.374-0.333l631.48-349.212 631.48 349.212c3.533 1.933 7.762 2.059 11.374 0.333l288.383-138.56c6.178-2.962 8.776-10.376 5.814-16.538-2.978-6.178-10.344-8.808-16.554-5.814l-282.617 135.772-631.876-349.433c-1.853-1.030-3.929-1.537-6.004-1.552zM938.254-64c-6.859 0-12.403 5.56-12.403 12.403v271.528c0 6.859 5.56 12.403 12.403 12.403s12.403-5.56 12.403-12.403v-271.528c0.016-6.843-5.544-12.403-12.403-12.403z" />
<glyph unicode="&#xe91c;" glyph-name="express_production" horiz-adv-x="1097" d="M1064.098 906.233l-469.717-219.351c45.289-58.309 72.54-131.325 72.54-210.873 0-5.407-0.562-10.641-0.822-15.961h8.089c20.244 0 36.811-16.567 36.811-36.811v-86.945c0-20.244-16.567-36.811-36.811-36.811h-56.319c-60.212-100.441-169.78-167.92-295.395-167.92-65.273 0-126.091 18.514-178.085 50.004v-208.84c0-20.244 16.567-36.811 36.811-36.811h594.554c20.244 0 36.811 16.567 36.811 36.811v201.53c0 20.244 16.567 36.811 36.811 36.811h90.146c20.244 0 36.811-16.567 36.811-36.811v-201.53c0-20.244 16.567-36.811 36.811-36.811h47.625c20.244 0 36.811 16.567 36.811 36.811v912.27c-0.13 20.287-15.14 29.847-33.48 21.239zM976.245 336.335c0-20.244-16.567-36.811-36.811-36.811h-90.146c-20.244 0-36.811 16.567-36.811 36.811v86.945c0 20.244 16.567 36.811 36.811 36.811h90.146c20.244 0 36.811-16.567 36.811-36.811v-86.945zM550.087 734.031l-0.476 88.761c-0.13 20.244-14.967 29.284-33.004 20.114l-81.711-41.612c42.91-14.837 81.927-37.849 115.191-67.263zM155.895 342.001l-18.86-18.816c-8.089-8.089-8.089-21.498 0-29.587 2.682-5.407 8.089-5.407 13.453-5.407 5.407 0 10.771 0 16.134 5.407l18.86 18.86c8.089 8.046 8.089 21.455 0 29.544-8.132 8.002-21.542 5.364-29.587 0zM107.534 497.809h-26.862c-10.771 0-21.498-8.089-21.498-21.498s8.089-21.498 21.498-21.498h26.862c10.727 0 21.455 8.089 21.455 21.498s-10.727 21.498-21.455 21.498zM322.474 675.159c10.771 0 21.498 8.089 21.498 21.498v26.862c0 10.771-8.089 21.498-21.498 21.498s-21.498-8.089-21.498-21.498v-26.862c-0.043-13.453 10.727-21.498 21.498-21.498zM166.622 664.432c-8.089 8.046-21.498 8.046-29.587 0-8.089-8.089-8.089-21.498 0-29.587l18.86-18.816c2.682-2.682 8.089-5.407 13.409-5.407 5.407 0 10.771 2.725 13.496 5.407 8.046 8.089 8.046 21.498 0 29.587l-16.178 18.816zM416.469 602.619l-88.632-85.993c-13.453 2.682-26.905 0-37.633-8.046-16.091-16.134-16.091-40.315 0-56.449 16.134-16.134 40.315-16.134 56.449 0 10.727 10.727 13.453 24.18 10.727 37.589l88.675 85.993c8.132 8.089 8.132 21.498 0 29.587-8.089 5.32-21.455 5.32-29.587-2.682zM343.972 801.467v16.134c29.587 8.046 53.724 37.589 53.724 69.815-2.682 37.633-34.908 72.584-75.222 72.584s-72.54-32.269-72.54-72.584c0-32.226 21.455-61.813 53.724-69.815v-16.134c-169.261-10.727-303.657-150.488-303.657-319.749 0-177.393 145.081-322.43 322.43-322.43s322.43 145.081 322.43 322.43c0.043 169.218-134.31 309.021-300.889 319.749zM290.205 884.735c0 18.816 13.453 32.226 32.226 32.226 18.86 0 32.269-13.453 32.269-32.226 0-16.134-13.453-32.269-32.269-32.269-18.773 0-32.226 16.134-32.226 32.269zM322.474 199.602c-155.851 0-282.073 126.264-282.073 282.116s126.264 279.434 282.073 279.434 282.116-126.308 282.116-282.116-126.308-279.434-282.116-279.434zM322.474 282.87c-10.727 0-21.498-8.089-21.498-21.498v-26.905c0-10.727 8.132-21.455 21.498-21.455 13.453 0 21.498 8.089 21.498 21.455v26.905c0 13.453-10.727 21.498-21.498 21.498zM564.275 497.809h-26.862c-10.727 0-21.455-8.089-21.455-21.498s8.046-21.498 21.455-21.498h26.862c10.771 0 21.498 8.089 21.498 21.498s-10.727 21.498-21.498 21.498zM478.282 664.432l-18.816-18.816c-8.089-8.089-8.089-21.498 0-29.587 2.682-2.682 8.089-5.407 13.453-5.407s10.771 2.725 13.496 5.407l18.816 18.816c8.046 8.089 8.046 21.498 0 29.587-5.45 8.002-18.816 8.002-26.949 0zM489.053 342.001c-8.089 8.046-21.498 8.046-29.587 0-8.089-8.089-8.089-21.498 0-29.544l18.816-18.86c5.407-5.407 10.771-5.407 16.178-5.407 5.32 0 10.727 2.682 13.409 5.407 8.132 8.089 8.132 21.498 0 29.587l-18.816 18.816z" />
<glyph unicode="&#xe91d;" glyph-name="production" horiz-adv-x="1003" d="M0-25.277c0-21.295 17.428-38.723 38.723-38.723h625.439c21.295 0 38.723 17.428 38.723 38.723v212.044c0 21.341 17.428 38.769 38.769 38.769h94.828c21.295 0 38.723-17.428 38.723-38.769v-211.953c0-21.341 17.473-38.769 38.723-38.769h50.144c21.341 0 38.769 17.428 38.769 38.769v959.568c0 21.295-15.835 31.306-35.083 22.342l-505.448-236.024c-19.293-9.010-35.083 1.047-35.219 22.342l-0.683 125.861c-0.182 21.295-15.79 30.806-34.764 21.159l-357.153-181.921c-18.975-9.647-34.491-34.992-34.491-56.242v-677.176zM148.158 448.592c0 21.341 17.428 38.769 38.723 38.769h94.828c21.295 0 38.723-17.428 38.723-38.769v-91.461c0-21.295-17.428-38.769-38.723-38.769h-94.828c-21.295 0-38.723 17.473-38.723 38.769v91.461zM427.228 448.592c0 21.341 17.428 38.769 38.723 38.769h91.37c21.341 0 38.769-17.428 38.769-38.769v-91.461c0-21.295-17.428-38.769-38.769-38.769h-91.37c-21.341 0-38.769 17.473-38.769 38.769l0.046 91.461zM702.885 448.592c0 21.341 17.428 38.769 38.769 38.769h94.828c21.295 0 38.723-17.428 38.723-38.769v-91.461c0-21.295-17.428-38.769-38.723-38.769h-94.874c-21.341 0-38.769 17.473-38.769 38.769v91.461z" />
<glyph unicode="&#xe91e;" glyph-name="user" d="M738.958 468.298c-42.203-96.456-134.262-177.128-223.521-177.128-108.984 0-188.16 79.733-230.363 176.152-245.447-127.139-214.515-448.893-214.515-448.893 0-44.054 34.698-50.445 75.474-50.445h738.187c40.845 0 75.649 6.423 75.649 50.445 0.037 0 24.504 322.698-220.906 449.874zM515.4 343.466c122.917 0 220.625 175.94 220.625 321.303 0 145.395-99.628 263.247-222.545 263.247s-222.582-117.852-222.582-263.247c0-145.395 101.548-321.303 224.502-321.303z" />
<glyph unicode="&#xe91f;" glyph-name="rail-down" horiz-adv-x="1086" d="M952.679 366.853h34.060v-430.853h-34.060v430.853zM812.388 417.908h34.060v-481.908h-34.060v481.908zM239.711 626.353h34.060v-686.334h-34.060v686.334zM99.454 677.408h34.060v-737.423h-34.060v737.423zM1069.129 313.652c-1.975 0-3.917 0.341-5.824 1.022l-1052.099 382.931c-6.744 2.452-11.206 8.855-11.206 16.008v105.38c0 5.552 2.725 10.763 7.255 13.964 4.53 3.168 10.388 3.951 15.599 2.044l1052.099-382.931c6.71-2.452 11.206-8.855 11.206-16.008v-105.38c0-5.552-2.691-10.763-7.255-13.93-2.929-2.044-6.335-3.099-9.775-3.099zM34.060 725.534l1018.040-370.534v69.107l-1018.040 370.568v-69.141zM22.856 960.014l937.224-341.099-11.648-32.006-937.224 341.099 11.648 32.006zM959.832 690.725l109.127-130.073-167.232-29.496z" />
<glyph unicode="&#xe920;" glyph-name="rail-straight" horiz-adv-x="1490" d="M136.35 526.942h46.711v-590.895h-46.711v590.895zM328.799 526.942h46.711v-590.895h-46.711v590.895zM1114.152 526.942h46.711v-590.895h-46.711v590.895zM1306.555 526.942h46.711v-590.895h-46.711v590.895zM1466.26 503.586h-1442.905c-12.892 0-23.356 10.463-23.356 23.356v144.524c0 12.892 10.463 23.356 23.356 23.356h1442.905c12.892 0 23.356-10.463 23.356-23.356v-144.524c0-12.939-10.463-23.356-23.356-23.356zM46.711 550.297h1396.194v97.813h-1396.194v-97.813zM23.356 866.251h1275.305v-46.711h-1275.305v46.711zM1264.562 727.099l201.698 116.451-201.698 116.451z" />
<glyph unicode="&#xe921;" glyph-name="rail-up" horiz-adv-x="1072" d="M98.085 361.071h33.602v-425.071h-33.602v425.071zM236.527 411.441h33.602v-475.441h-33.602v475.441zM801.451 617.054h33.602v-677.089h-33.602v677.089zM939.86 667.457h33.602v-727.492h-33.602v727.492zM16.801 308.584c-3.394 0-6.788 1.008-9.644 3.058-4.469 3.091-7.157 8.266-7.157 13.743v103.966c0 7.057 4.402 13.374 11.055 15.793l1037.979 377.758c5.141 1.882 10.854 1.109 15.39-2.016 4.503-3.159 7.157-8.3 7.157-13.777v-103.966c0-7.057-4.436-13.374-11.055-15.793l-1037.979-377.758c-1.882-0.672-3.797-1.008-5.746-1.008zM33.602 417.556v-68.213l1004.376 365.594v68.213l-1004.376-365.594zM935.732 904.982l11.489-31.576-924.677-336.434-11.489 31.576 924.677 336.434zM946.95 802.573l107.662 128.328-164.988 29.1z" />
<glyph unicode="&#xe922;" glyph-name="color-select" horiz-adv-x="1050" d="M1019.336 354.825c-5.577-7.293-12.303-13.866-20.135-19.346 13.894-11.86 22.903-29.282 22.903-48.947v-258.228c0-35.621-28.992-64.612-64.612-64.612h-515.404c-16.759-17.049-40.049-27.677-65.789-27.677h581.193c50.898 0 92.29 41.391 92.29 92.29v258.228c0 27.082-11.804 51.397-30.445 68.293zM816.283 700.679c1.19 0.069 2.38 0.235 3.584 0.235 23.526 0 45.224-12.662 56.627-33.033l126.028-225.389c17.381-31.095 6.241-70.549-24.868-87.93l-509.066-284.674v-31.718l522.573 292.243c2.782 1.564 5.466 3.238 8.026 5.051 7.833 5.48 14.558 12.053 20.135 19.346 21.685 28.383 25.837 68.086 7.334 101.188l-126.042 225.389c-16.274 29.103-47.217 47.19-80.762 47.19-1.010 0-2.007-0.166-3.017-0.194 1.245-9.3 1.010-18.627-0.554-27.705zM462.541 900.286c11.707 10.545 26.985 16.579 43.398 16.579 11.943 0 23.609-3.307 33.752-9.576l219.688-135.729c14.614-9.023 24.84-23.277 28.84-40.132 3.972-16.855 1.19-34.181-7.819-48.795l-311.811-504.721v-52.656l335.337 542.832c6.255 10.13 10.365 21.173 12.358 32.59 1.564 9.078 1.799 18.405 0.567 27.705-0.415 3.141-0.969 6.283-1.716 9.41-5.674 24.051-20.329 44.408-41.225 57.319l-219.688 135.729c-14.517 8.967-31.206 13.7-48.283 13.7-21.284 0-41.211-7.182-57.223-19.789 5.785-7.334 10.448-15.568 13.825-24.467zM25.781 28.29c0-50.898 41.405-92.29 92.29-92.29h258.228c25.74 0 49.030 10.628 65.789 27.677 16.371 16.662 26.501 39.481 26.501 64.612v839.421c0 11.486-2.2 22.432-6.061 32.576-3.377 8.898-8.040 17.132-13.839 24.467-16.897 21.422-43.038 35.247-72.39 35.247h-258.228c-50.898 0-92.29-41.405-92.29-92.29zM118.071-36.323c-35.634 0-64.612 28.992-64.612 64.612v839.421c0 35.621 28.992 64.612 64.612 64.612h258.228c35.634 0 64.612-28.992 64.612-64.612v-839.421c0-35.621-28.992-64.612-64.612-64.612h-258.228zM247.185 78.122c-55.022 0-99.776 44.754-99.776 99.79 0 55.008 44.754 99.762 99.776 99.762s99.776-44.754 99.776-99.762c0-55.022-44.768-99.79-99.776-99.79zM247.185 236.159c-32.119 0-58.26-26.141-58.26-58.247 0-32.133 26.141-58.274 58.26-58.274s58.26 26.141 58.26 58.274c0 32.119-26.141 58.247-58.26 58.247z" />
<glyph unicode="&#xe923;" glyph-name="landscape-to-portrait" d="M939.55 403.595h-471.956v471.956c0 46.574-37.876 84.45-84.45 84.45h-298.695c-46.574 0-84.45-37.876-84.45-84.45v-572.091c0-46.55 37.876-84.426 84.45-84.426h198.584v-198.56c0-46.574 37.876-84.45 84.426-84.45h572.091c46.574 0 84.45 37.876 84.45 84.45v298.671c0 46.55-37.876 84.45-84.45 84.45zM84.45 290.714c-7.035 0-12.746 5.71-12.746 12.722v572.115c0 7.035 5.71 12.746 12.746 12.746h298.695c7.035 0 12.746-5.71 12.746-12.746v-471.956h-28.431c-46.55 0-84.426-37.876-84.426-84.45v-28.407h-198.584zM952.296 20.45c0-7.035-5.71-12.746-12.746-12.746h-572.091c-7.011 0-12.722 5.71-12.722 12.746v298.671c0 6.602 5.012 12.023 11.421 12.674 0.434 0.048 0.867 0.072 1.301 0.072h572.091c7.035 0 12.746-5.71 12.746-12.746v-298.671zM994.967 621.984c-15.059 15.059-39.466 15.059-54.525 0l-32.744-32.744v208.607c0 21.299-17.251 38.551-38.551 38.551h-207.908l38.43 38.43c15.059 15.059 15.059 39.466 0 54.525s-39.466 15.059-54.525 0l-97.172-97.172c-12.505-6.385-21.082-19.348-21.082-34.334 0-0.458 0.048-0.891 0.072-1.349-0.024-0.458-0.072-0.916-0.072-1.373 0-10.216 4.072-20.022 11.3-27.25l101.533-101.533c7.517-7.517 17.396-11.3 27.25-11.3s19.733 3.759 27.25 11.3c15.059 15.059 15.059 39.466 0 54.525l-38.43 38.43h174.779v-176.008l-44.116 44.116c-15.059 15.059-39.466 15.059-54.525 0s-15.059-39.466 0-54.525l106.954-106.954c7.517-7.541 17.396-11.3 27.25-11.3 0.506 0 1.012 0.048 1.518 0.072 0.482-0.024 0.964-0.072 1.446-0.072 15.203 0 28.286 8.818 34.575 21.588l91.22 91.22c15.131 15.107 15.131 39.514 0.072 54.549z" />
<glyph unicode="&#xe924;" glyph-name="info-important" d="M512.012 799.337c29.224 0 58.291-18.441 80.43-55.322l307.969-513.317c44.33-73.71 10.105-134.033-75.847-134.033h-625.108c-85.952 0-120.177 60.376-75.847 134.033l307.969 513.317c22.139 36.881 51.206 55.322 80.43 55.322zM512.012 903.521c-67.512 0-129.293-38.548-169.77-105.8l-307.969-513.422c-40.945-68.189-45.424-140.909-12.242-199.513s97.882-92.307 177.426-92.307h625.108c79.545 0 144.296 33.652 177.426 92.256s28.702 131.325-12.242 199.513l-307.969 513.317c-40.476 67.408-102.258 105.956-169.77 105.956zM590.15 213.976c0 0-37.038-18.806-56-9.48-18.857 9.585-22.608 28.183-11.93 60.010l21.15 63.605c20.993 63.605-6.303 108.144-56.364 111.009-65.532 3.647-105.227-43.028-105.227-43.028s36.985 19.013 56 9.48c18.857-9.585 22.504-28.183 11.93-60.010l-21.15-63.605c-21.097-63.605 6.198-108.040 56.364-111.009 65.532-3.698 105.227 43.028 105.227 43.028zM579.784 565.494c0-37.43-30.342-67.772-67.772-67.772s-67.772 30.342-67.772 67.772c0 37.43 30.342 67.772 67.772 67.772s67.772-30.342 67.772-67.772z" />
<glyph unicode="&#xe925;" glyph-name="menu" d="M128 405.333h768c23.552 0 42.667 19.115 42.667 42.667s-19.115 42.667-42.667 42.667h-768c-23.552 0-42.667-19.115-42.667-42.667s19.115-42.667 42.667-42.667zM128 661.333h768c23.552 0 42.667 19.115 42.667 42.667s-19.115 42.667-42.667 42.667h-768c-23.552 0-42.667-19.115-42.667-42.667s19.115-42.667 42.667-42.667zM128 149.333h768c23.552 0 42.667 19.115 42.667 42.667s-19.115 42.667-42.667 42.667h-768c-23.552 0-42.667-19.115-42.667-42.667s19.115-42.667 42.667-42.667z" />
<glyph unicode="&#xe926;" glyph-name="worker" d="M627.613 596.645c0-9.122-7.394-16.516-16.516-16.516s-16.516 7.394-16.516 16.516c0 9.122 7.394 16.516 16.516 16.516s16.516-7.394 16.516-16.516zM429.419 596.645c0-9.122-7.394-16.516-16.516-16.516s-16.516 7.394-16.516 16.516c0 9.122 7.394 16.516 16.516 16.516s16.516-7.394 16.516-16.516zM578.065 448h-33.032c0-18.217-14.815-33.032-33.032-33.032s-33.032 14.815-33.032 33.032h-33.032c0-36.435 29.63-66.065 66.065-66.065s66.065 29.63 66.065 66.065zM794.806 195.501l-169.439 69.318c-18.696 7.647-30.786 25.65-30.786 45.865v11.859c50.82 35.113 89.633 84.662 111.633 141.973h3.98c45.535 0 82.581 37.046 82.581 82.581v115.613c18.217 0 33.032 14.815 33.032 33.032v33.032c0 18.217-14.815 33.032-33.032 33.032h-12.602c-36.005 117.265-144.334 198.194-268.172 198.194s-232.167-80.929-268.172-198.194h-12.602c-18.217 0-33.032-14.815-33.032-33.032v-33.032c0-18.217 14.815-33.032 33.032-33.032v-115.613c0-45.535 37.046-82.581 82.581-82.581h3.98c21.999-57.327 60.812-106.859 111.633-141.973v-11.859c0-20.216-12.090-38.202-30.786-45.849l-169.439-69.318c-99.097-40.564-163.13-135.944-163.13-243.002v-16.516h891.871v16.516c0 107.058-64.033 202.438-163.13 242.985zM264.258 174.146l66.065 27.020v-133.037h-66.065zM363.355 207.079l126.332-138.95h-126.332zM534.313 68.129l126.332 138.95v-138.95zM693.677 201.183l66.065-27.020v-106.034h-66.065zM717.031 498.242c6.26 24.477 9.678 49.961 9.678 76.090v19.274c19.175-6.838 33.032-25.005 33.032-46.509 0-24.972-18.647-45.485-42.711-48.855zM759.742 612.732c-9.645 7.3-20.761 12.767-33.032 15.261v34.717h33.032zM556.478 922.872l-19.274-75.413c-2.94-11.545-13.295-19.588-25.204-19.588s-22.264 8.043-25.204 19.572l-19.274 75.413c14.485 2.643 29.333 4.113 44.478 4.113s29.993-1.47 44.478-4.096zM435.497 914.746l19.291-75.479c6.673-26.162 30.208-44.428 57.212-44.428s50.539 18.267 57.212 44.428l19.291 75.479c72.374-23.469 131.221-79.343 157.134-152.939h-68.476v33.032h-33.032v-33.032h-33.032v33.032h-33.032v-33.032h-132.129v33.032h-33.032v-33.032h-33.032v33.032h-33.032v-33.032h-68.476c25.914 73.596 84.761 129.47 157.134 152.939zM231.226 728.774h561.548l0.017-33.032h-561.565zM297.29 662.71v-34.7c-12.271-2.51-23.387-7.961-33.032-15.261v49.961zM264.258 547.097c0 21.504 13.857 39.672 33.032 46.509v-19.274c0-26.129 3.419-51.613 9.678-76.090-24.064 3.369-42.711 23.882-42.711 48.855zM330.323 574.332v88.378h363.355v-88.378c0-115.993-72.77-218.789-181.677-257.503-108.907 38.714-181.677 141.494-181.677 257.503zM506.781 283.698l5.219-1.751 5.219 1.734c15.641 5.219 30.637 11.594 44.907 19.027 1.685-17.606 8.754-33.875 20.1-46.708-14.881-24.114-41.356-39.226-70.227-39.226s-55.346 15.112-70.243 39.242c11.363 12.833 18.415 29.101 20.1 46.708 14.27-7.432 29.283-13.824 44.924-19.027zM411.153 234.248c1.42 0.578 2.692 1.371 4.063 2.031 21.124-32.372 57.344-52.538 96.785-52.538s75.66 20.166 96.785 52.538c1.371-0.661 2.659-1.453 4.079-2.031l20.282-8.308-121.146-133.269-121.146 133.269zM99.675-30.968c5.88 82.994 55.924 155.797 131.551 191.174v-191.174zM264.258-30.968v66.065h495.484v-66.065zM792.774-30.968v191.174c75.627-35.378 125.671-108.181 131.551-191.174z" />
<glyph unicode="&#xe927;" glyph-name="switch" d="M960 960h64v-512h-64v512zM0 448h64v-512h-64v512zM320 256h704v-128h-704v-160l-224 224 224 224v-160zM704 640h-704v128h704v160l224-224-224-224z" />
<glyph unicode="&#xe928;" glyph-name="trash" d="M128 640v-640c0-35.2 28.8-64 64-64h576c35.2 0 64 28.8 64 64v640h-704zM320 64h-64v448h64v-448zM448 64h-64v448h64v-448zM576 64h-64v448h64v-448zM704 64h-64v448h64v-448zM848 832h-208v80c0 26.4-21.6 48-48 48h-224c-26.4 0-48-21.6-48-48v-80h-208c-26.4 0-48-21.6-48-48v-80h832v80c0 26.4-21.6 48-48 48zM576 832h-192v63.198h192v-63.198z" />
<glyph unicode="&#xe929;" glyph-name="gear" d="M933.79 349.75c-53.726 93.054-21.416 212.304 72.152 266.488l-100.626 174.292c-28.75-16.854-62.176-26.518-97.846-26.518-107.536 0-194.708 87.746-194.708 195.99h-201.258c0.266-33.41-8.074-67.282-25.958-98.252-53.724-93.056-173.156-124.702-266.862-70.758l-100.624-174.292c28.97-16.472 54.050-40.588 71.886-71.478 53.638-92.908 21.512-211.92-71.708-266.224l100.626-174.292c28.65 16.696 61.916 26.254 97.4 26.254 107.196 0 194.144-87.192 194.7-194.958h201.254c-0.086 33.074 8.272 66.57 25.966 97.218 53.636 92.906 172.776 124.594 266.414 71.012l100.626 174.29c-28.78 16.466-53.692 40.498-71.434 71.228zM512 240.668c-114.508 0-207.336 92.824-207.336 207.334 0 114.508 92.826 207.334 207.336 207.334 114.508 0 207.332-92.826 207.332-207.334-0.002-114.51-92.824-207.334-207.332-207.334z" />
<glyph unicode="&#xe987;" glyph-name="zoom-in" d="M992.262 88.604l-242.552 206.294c-25.074 22.566-51.89 32.926-73.552 31.926 57.256 67.068 91.842 154.078 91.842 249.176 0 212.078-171.922 384-384 384-212.076 0-384-171.922-384-384s171.922-384 384-384c95.098 0 182.108 34.586 249.176 91.844-1-21.662 9.36-48.478 31.926-73.552l206.294-242.552c35.322-39.246 93.022-42.554 128.22-7.356s31.892 92.898-7.354 128.22zM384 320c-141.384 0-256 114.616-256 256s114.616 256 256 256 256-114.616 256-256-114.614-256-256-256zM448 768h-128v-128h-128v-128h128v-128h128v128h128v128h-128z" />
</font>
</defs>
</svg>
